<?xml version="1.0" standalone="no"?>
<!DOCTYPE svg PUBLIC "-//W3C//DTD SVG 1.1//EN" "http://www.w3.org/Graphics/SVG/1.1/DTD/svg11.dtd">
<svg xmlns="http://www.w3.org/2000/svg">
<defs >
<font id="Montserrat" horiz-adv-x="630" ><font-face
    font-family="Montserrat Thin SemiBold"
    units-per-em="1000"
    panose-1="0 0 0 0 0 0 0 0 0 0"
    ascent="968"
    descent="-251"
    alphabetic="0" />
<glyph unicode=" " horiz-adv-x="276" />
<glyph unicode="!" horiz-adv-x="278" d="M83 232L151 700H300L182 232H83ZM96 -7Q63 -7 42 14T20 65Q20 101 44 124T103 148Q136 148 157 128T179 76Q179 54 168 35T139 4T96 -7Z" />
<glyph unicode="&quot;" horiz-adv-x="413" d="M97 423L143 700H250L188 423H97ZM290 423L336 700H443L381 423H290Z" />
<glyph unicode="#" horiz-adv-x="711" d="M343 0L567 700H661L437 0H343ZM5 170L23 261H654L636 170H5ZM84 0L308 700H401L177 0H84ZM92 439L109 530H741L723 439H92Z" />
<glyph unicode="$" horiz-adv-x="629" d="M204 -120L392 820H473L285 -120H204ZM271 -10Q216 -10 164 1T70 30T-1 72L54 174Q84 150 120 133T198 107T282 98Q333 98 371 110T429 144T450 197Q450 225 431 242T381 271T312 293T236 317T167 351T117 404T97 484Q97
553 135 603T243 682T402 710Q470 710 531 695T636 651L586 548Q546 574 497 588T395 602Q343 602 305 589T247 553T226 499Q226 470 245 453T295 423T364 401T439 377T509 344T560 294T579 217Q579 148 541 97T433 18T271 -10Z" />
<glyph unicode="%" horiz-adv-x="860" d="M89 0L701 700H803L192 0H89ZM225 323Q159 323 119 364T79 479Q79 541 103 592T170 675T275 707Q341 707 381 666T421 551Q421 490 398 438T331 355T225 323ZM232 393Q269 393 292 417T327 476T339 546Q339 592 320 614T268
637Q232 637 208 613T173 554T161 484Q161 438 181 416T232 393ZM618 -7Q552 -7 512 33T472 148Q472 210 495 261T563 344T668 376Q734 376 774 335T814 220Q814 159 791 107T724 24T618 -7ZM625 62Q662 62 685 86T720 145T732 215Q732 261 713 283T661 306Q625
306 601 283T566 223T554 153Q554 108 574 85T625 62Z" />
<glyph unicode="&amp;" horiz-adv-x="706" d="M261 -10Q189 -10 136 11T52 70T22 161Q22 218 53 263T143 346T286 419Q359 448 398 471T451 515T466 561Q466 586 447 602T393 619Q347 619 320 595T292 530Q292 508 304 484T347 424L647 69L564 -11L240 373Q209
409 193 444T177 518Q177 577 206 619T286 685T397 708Q449 708 488 692T550 646T573 571Q573 519 544 480T460 407T326 341Q264 314 225 290T166 241T147 182Q147 143 179 118T273 92Q334 92 391 120T496 206T577 347L673 314Q632 210 570 138T430 28T261 -10Z"
/>
<glyph unicode="&apos;" horiz-adv-x="220" d="M97 423L143 700H250L188 423H97Z" />
<glyph unicode="(" horiz-adv-x="347" d="M118 -194Q104 -159 92 -113T74 -15T68 87Q68 178 83 267T128 442T199 603T294 742H420Q364 671 322 591T249 427T204 256T188 80Q188 11 199 -56T233 -194H118Z" />
<glyph unicode=")" horiz-adv-x="347" d="M-38 -194Q18 -122 61 -43T133 121T178 292T194 468Q194 537 183 604T149 742H264Q279 707 290 661T308 563T314 461Q314 371 299 281T254 106T184 -55T88 -194H-38Z" />
<glyph unicode="*" horiz-adv-x="416" d="M472 612L320 537L323 560L441 487L395 419L281 496L292 501L266 358H188L218 501L232 494L90 419L59 485L211 560L208 540L90 612L136 682L249 605L238 598L264 742H341L311 598L300 605L441 681L472 612Z" />
<glyph unicode="+" horiz-adv-x="591" d="M214 125L303 575H410L321 125H214ZM71 300L91 400H553L533 300H71Z" />
<glyph unicode="," horiz-adv-x="244" d="M-35 -151L67 70L80 -7Q47 -7 25 15T2 71Q2 110 28 134T89 159Q122 159 144 138T166 81Q166 63 160 46T137 4L45 -151H-35Z" />
<glyph unicode="-" horiz-adv-x="385" d="M48 226L68 330H343L322 226H48Z" />
<glyph unicode="." horiz-adv-x="244" d="M80 -7Q47 -7 25 15T2 71Q2 110 28 134T89 159Q122 159 144 138T166 81Q166 55 154 35T123 4T80 -7Z" />
<glyph unicode="/" horiz-adv-x="371" d="M-105 -100L409 842H527L13 -100H-105Z" />
<glyph unicode="0" horiz-adv-x="672" d="M296 -10Q220 -10 165 21T81 110T51 251Q51 344 76 427T149 574T262 674T410 710Q486 710 540 679T624 590T654 449Q654 356 629 273T556 126T443 26T296 -10ZM307 103Q359 103 399 135T467 219T509 331T523 446Q523 522
490 559T399 597Q346 597 305 565T237 481T195 369T181 254Q181 179 214 141T307 103Z" />
<glyph unicode="1" horiz-adv-x="381" d="M103 0L232 645L278 591H72L94 700H373L233 0H103Z" />
<glyph unicode="2" horiz-adv-x="582" d="M-18 0L-1 87L329 348Q373 383 397 410T432 461T442 510Q442 551 413 575T322 599Q275 599 232 580T156 524L68 594Q112 647 183 678T340 710Q413 710 465 687T546 623T574 528Q574 488 560 449T512 370T416 281L134 60L109
110H520L497 0H-18Z" />
<glyph unicode="3" horiz-adv-x="582" d="M221 -10Q142 -10 77 12T-30 74L35 173Q67 142 117 123T229 103Q284 103 322 117T380 159T400 223Q400 268 367 290T265 313H202L220 402L465 639L478 591H100L122 700H598L582 613L336 375L273 414H302Q375 414 426 392T504
329T531 230Q531 161 492 107T383 21T221 -10Z" />
<glyph unicode="4" horiz-adv-x="679" d="M14 159L31 249L460 700H604L180 249L112 269H669L647 159H14ZM364 0L397 159L423 269L452 410H573L491 0H364Z" />
<glyph unicode="5" horiz-adv-x="584" d="M235 -10Q156 -10 91 12T-16 74L49 173Q80 142 130 123T243 103Q325 103 369 135T414 225Q414 268 378 293T257 319H77L188 700H599L577 591H213L297 653L211 368L153 429H282Q417 429 481 378T545 239Q545 165 506 109T397
21T235 -10Z" />
<glyph unicode="6" horiz-adv-x="627" d="M327 -10Q247 -10 185 22T87 119T52 278Q52 336 66 397T111 514T190 614T305 684T459 710Q513 710 562 699T644 666L585 567Q557 586 523 593T451 601Q399 601 358 586T287 545T235 485T202 412T188 334Q187 305 186 291T185
264L138 284Q160 339 194 371T272 417T368 432Q429 432 480 409T563 340T595 230Q595 157 560 103T465 20T327 -10ZM324 92Q386 92 426 126T466 221Q466 273 430 301T335 330Q291 330 258 314T206 270T188 206Q188 176 203 151T250 109T324 92Z" />
<glyph unicode="7" horiz-adv-x="608" d="M108 0L522 648L549 590H152L227 653L190 471H69L115 700H659L642 613L251 0H108Z" />
<glyph unicode="8" horiz-adv-x="652" d="M300 -10Q216 -10 155 14T60 81T26 184Q26 252 61 300T163 374T323 400Q410 400 471 378T565 314T598 215Q598 146 561 96T456 18T300 -10ZM303 92Q379 92 423 124T467 214Q467 262 428 289T320 317Q245 317 201 284T157
195Q157 148 196 120T303 92ZM367 331Q286 331 230 351T144 410T114 501Q114 566 148 612T244 684T385 710Q460 710 516 688T604 626T636 531Q636 468 604 423T511 355T367 331ZM368 411Q432 411 470 440T508 517Q508 560 474 584T382 608Q319 608 281 580T243
500Q243 460 276 436T368 411Z" />
<glyph unicode="9" horiz-adv-x="627" d="M334 710Q415 710 476 678T573 581T608 422Q608 364 594 303T550 186T471 86T356 16T202 -10Q148 -10 99 1T17 34L76 133Q104 114 138 107T210 99Q262 99 303 114T374 155T426 215T458 288T472 366Q475 395 475 409T476
436L522 416Q502 362 468 330T389 283T294 268Q233 268 181 291T98 360T66 470Q66 544 101 597T196 680T334 710ZM336 608Q275 608 235 574T195 479Q195 427 231 399T325 370Q370 370 403 386T454 430T473 494Q473 524 457 549T411 591T336 608Z" />
<glyph unicode=":" horiz-adv-x="244" d="M156 374Q123 374 101 396T78 452Q78 491 104 515T165 540Q198 540 220 519T242 462Q242 436 230 416T199 385T156 374ZM80 -7Q47 -7 25 15T2 71Q2 110 28 134T89 159Q122 159 144 138T166 81Q166 55 154 35T123 4T80 -7Z" />
<glyph unicode=";" horiz-adv-x="244" d="M156 374Q123 374 101 396T78 452Q78 491 104 515T165 540Q198 540 220 519T242 462Q242 436 230 416T199 385T156 374ZM-35 -151L67 70L80 -7Q47 -7 25 15T2 71Q2 110 28 134T89 159Q122 159 144 138T166 81Q166 63 160
46T137 4L45 -151H-35Z" />
<glyph unicode="&lt;" horiz-adv-x="590" d="M589 583L567 474L112 316L124 373L516 215L496 117L70 296L92 404L589 583Z" />
<glyph unicode="=" horiz-adv-x="590" d="M96 420L116 521H577L556 420H96ZM47 179L67 279H528L508 179H47Z" />
<glyph unicode="&gt;" horiz-adv-x="590" d="M36 117L58 226L510 384L498 327L110 485L129 583L554 404L532 296L36 117Z" />
<glyph unicode="?" horiz-adv-x="581" d="M215 232Q222 272 241 301T285 352T338 393T388 430T425 470T439 522Q439 559 410 580T325 602Q270 602 227 582T151 524L68 593Q112 648 183 679T348 710Q416 710 466 690T543 633T571 545Q571 501 557 469T519 413T468
370T415 331T370 288T341 232H215ZM242 -7Q209 -7 188 14T166 65Q166 101 190 124T249 148Q283 148 304 128T325 76Q325 54 314 35T285 4T242 -7Z" />
<glyph unicode="@" horiz-adv-x="1034" d="M447 -204Q319 -204 227 -156T86 -21T37 177Q37 290 76 387T188 556T362 668T587 709Q717 709 808 663T948 535T996 343Q996 274 979 212T931 100T856 23T760 -6Q689 -6 656 32T637 138L649 190L669 248L682 380L705
496H817L748 154Q741 120 752 104T790 87Q819 87 841 110T880 170T904 252T913 338Q913 427 875 492T763 592T575 627Q474 627 392 593T251 499T161 358T129 184Q129 93 166 25T276 -82T453 -121Q504 -121 552 -112T645 -82L663 -161Q618 -181 561 -192T447 -204ZM459
-6Q398 -6 350 19T274 93T246 207Q246 269 266 322T323 415T410 479T522 502Q618 502 668 448T720 295Q721 213 692 145T605 35T459 -6ZM488 91Q539 91 578 116T639 184T662 281Q662 341 627 373T530 405Q481 405 443 382T382 316T360 216Q360 156 394 124T488
91Z" />
<glyph unicode="A" horiz-adv-x="749" d="M-58 0L397 700H526L700 0H571L425 633H477L81 0H-58ZM120 162L175 264H552L569 162H120Z" />
<glyph unicode="B" horiz-adv-x="761" d="M41 0L181 700H504Q614 700 673 660T732 543Q732 477 699 432T613 364T500 341L525 375Q604 375 653 336T702 220Q702 147 663 98T554 25T392 0H41ZM191 102H401Q482 102 527 132T572 220Q572 267 539 285T446 304H213L233
405H436Q484 405 520 417T576 456T596 521Q596 561 565 579T475 598H290L191 102Z" />
<glyph unicode="C" horiz-adv-x="727" d="M396 -10Q289 -10 213 28T97 133T56 289Q56 378 86 454T174 588T310 677T487 710Q578 710 647 680T753 593L659 514Q630 554 585 575T478 596Q411 596 357 573T265 509T207 413T187 297Q187 240 212 196T286 128T406 104Q465
104 515 124T605 185L681 103Q630 45 557 18T396 -10Z" />
<glyph unicode="D" horiz-adv-x="826" d="M41 0L181 700H464Q571 700 647 665T763 564T804 411Q804 318 773 242T684 113T546 30T368 0H41ZM193 110H372Q466 110 533 148T637 253T673 403Q673 460 648 502T574 567T450 590H289L193 110Z" />
<glyph unicode="E" horiz-adv-x="670" d="M242 409H591L570 302H221L242 409ZM192 109H588L566 0H41L181 700H692L670 591H288L192 109Z" />
<glyph unicode="F" horiz-adv-x="637" d="M236 378H585L563 268H214L236 378ZM171 0H41L181 700H692L670 591H289L171 0Z" />
<glyph unicode="G" horiz-adv-x="772" d="M396 -10Q291 -10 215 28T98 133T56 289Q56 378 86 454T174 588T311 677T491 710Q587 710 658 680T772 595L678 517Q643 559 596 577T485 596Q417 596 362 574T268 510T208 415T187 297Q187 240 212 196T287 128T411 104Q466
104 514 122T606 178L657 76Q605 35 537 13T396 -10ZM539 96L591 358H714L657 76L539 96Z" />
<glyph unicode="H" horiz-adv-x="810" d="M673 700H802L662 0H533L673 700ZM171 0H41L181 700H311L171 0ZM603 300H222L243 411H626L603 300Z" />
<glyph unicode="I" horiz-adv-x="319" d="M41 0L181 700H311L171 0H41Z" />
<glyph unicode="J" horiz-adv-x="527" d="M171 -10Q95 -10 40 17T-45 94L42 178Q63 141 96 121T173 100Q224 100 257 129T302 222L376 591H126L148 700H525L431 229Q414 141 380 89T293 13T171 -10Z" />
<glyph unicode="K" horiz-adv-x="729" d="M193 168L210 321L646 700H810L436 375L352 306L193 168ZM41 0L181 700H310L170 0H41ZM538 0L323 319L412 407L683 0H538Z" />
<glyph unicode="L" horiz-adv-x="599" d="M41 0L181 700H311L193 110H559L537 0H41Z" />
<glyph unicode="M" horiz-adv-x="955" d="M41 0L181 700H287L491 187L436 188L835 700H947L807 0H684L785 510L814 509L476 80H418L241 510L266 507L165 0H41Z" />
<glyph unicode="N" horiz-adv-x="810" d="M41 0L181 700H288L607 157L566 162L673 700H802L662 0H555L237 543L278 538L170 0H41Z" />
<glyph unicode="O" horiz-adv-x="842" d="M391 -10Q285 -10 210 28T96 133T56 289Q56 378 86 454T173 588T309 677T485 710Q590 710 665 672T780 567T820 411Q820 322 790 246T702 112T567 23T391 -10ZM402 104Q468 104 521 127T611 192T669 288T689 403Q689 460
664 504T591 572T473 596Q408 596 355 573T264 508T207 412T187 297Q187 240 211 196T284 128T402 104Z" />
<glyph unicode="P" horiz-adv-x="726" d="M41 0L181 700H451Q578 700 647 644T717 489Q717 400 677 336T561 237T383 202H155L224 264L171 0H41ZM221 249L175 312H388Q482 312 534 354T586 477Q586 534 548 562T437 590H234L302 655L221 249Z" />
<glyph unicode="Q" horiz-adv-x="842" d="M391 -10Q285 -10 210 28T96 133T56 289Q56 378 86 454T173 588T309 677T485 710Q590 710 665 672T780 567T820 411Q820 322 790 246T702 112T567 23T391 -10ZM590 -153Q501 -153 433 -110T317 18L461 48Q486 -7 518 -30T595
-54Q629 -54 661 -41T719 -1L770 -81Q738 -118 691 -135T590 -153ZM402 104Q468 104 521 127T611 192T669 288T689 403Q689 460 664 504T591 572T473 596Q408 596 355 573T264 508T207 412T187 297Q187 240 211 196T284 128T402 104Z" />
<glyph unicode="R" horiz-adv-x="731" d="M41 0L181 700H453Q580 700 649 645T719 489Q719 401 679 338T563 240T385 205H157L224 264L172 0H41ZM501 0L358 254H496L639 0H501ZM221 249L177 312H389Q484 312 536 354T588 477Q588 534 550 562T439 590H235L303
655L221 249Z" />
<glyph unicode="S" horiz-adv-x="629" d="M270 -10Q215 -10 164 1T70 30T-1 72L54 174Q83 150 120 133T198 107T282 98Q333 98 371 110T429 144T450 197Q450 225 431 242T381 271T312 293T236 317T167 351T117 404T97 484Q97 553 135 603T242 682T402 710Q470
710 531 695T636 651L585 548Q546 574 497 588T395 602Q343 602 305 589T247 553T226 499Q226 470 245 453T295 423T364 401T439 377T509 344T560 294T579 217Q579 148 541 97T433 18T270 -10Z" />
<glyph unicode="T" horiz-adv-x="602" d="M183 0L301 590H69L91 700H684L662 590H430L313 0H183Z" />
<glyph unicode="U" horiz-adv-x="789" d="M361 -10Q262 -10 196 29T104 138T96 305L175 700H305L226 307Q217 256 221 218T245 154T297 116T374 104Q430 104 470 125T538 191T581 308L659 700H787L707 299Q676 145 589 68T361 -10Z" />
<glyph unicode="V" horiz-adv-x="729" d="M247 0L82 700H216L363 67H280L685 700H820L375 0H247Z" />
<glyph unicode="W" horiz-adv-x="1144" d="M205 0L113 700H242L324 68H257L598 700H719L800 68H737L1075 700H1204L833 0H694L616 570H655L344 0H205Z" />
<glyph unicode="X" horiz-adv-x="693" d="M-44 0L325 397L316 323L111 700H249L403 413L345 416L607 700H755L408 324L411 398L629 0H490L327 305L386 302L112 0H-44Z" />
<glyph unicode="Y" horiz-adv-x="661" d="M212 0L267 279L282 195L78 700H207L370 296L294 295L621 700H757L353 194L397 279L341 0H212Z" />
<glyph unicode="Z" horiz-adv-x="663" d="M-14 0L3 87L561 639L572 590H114L137 700H713L695 613L138 61L126 110H606L584 0H-14Z" />
<glyph unicode="[" horiz-adv-x="351" d="M1 -194L188 742H427L407 640H293L147 -92H261L241 -194H1Z" />
<glyph unicode="\" horiz-adv-x="371" d="M328 -100H221L74 842H182L328 -100Z" />
<glyph unicode="]" horiz-adv-x="350" d="M165 -194H-73L-54 -92H59L205 640H92L112 742H352L165 -194Z" />
<glyph unicode="^" horiz-adv-x="591" d="M42 142L303 558H405L500 142H407L326 523H379L144 142H42Z" />
<glyph unicode="_" horiz-adv-x="500" d="M-69 -76L-53 0H447L431 -76H-69Z" />
<glyph unicode="`" horiz-adv-x="600" d="M344 607L197 744H343L452 607H344Z" />
<glyph unicode="a" horiz-adv-x="686" d="M269 -7Q204 -7 151 21T66 101T34 228Q34 296 56 353T120 452T215 517T335 540Q402 540 450 516T524 444T547 323Q545 224 511 150T416 34T269 -7ZM301 100Q355 100 396 125T461 196T485 300Q485 362 448 398T344 434Q291
434 250 409T184 338T160 234Q160 172 197 136T301 100ZM432 0L456 122L490 264L507 407L532 534H657L551 0H432Z" />
<glyph unicode="b" horiz-adv-x="686" d="M29 0L177 742H302L236 410L197 271L177 145L148 0H29ZM352 -7Q286 -7 238 16T164 86T138 200Q138 275 156 337T211 445T299 515T417 540Q483 540 536 513T620 433T652 306Q652 238 630 181T566 82T471 17T352 -7ZM342
100Q396 100 437 125T502 196T526 300Q526 362 489 398T385 434Q332 434 291 409T225 338T201 234Q201 172 238 136T342 100Z" />
<glyph unicode="c" horiz-adv-x="581" d="M296 -7Q217 -7 158 22T66 104T34 228Q34 318 75 388T188 499T354 540Q435 540 493 509T584 415L477 360Q459 398 426 416T344 434Q292 434 250 409T184 338T160 234Q160 172 197 136T302 100Q346 100 384 118T448 174L540
112Q503 56 438 25T296 -7Z" />
<glyph unicode="d" horiz-adv-x="687" d="M270 -7Q205 -7 151 21T66 101T35 228Q35 296 57 353T121 452T216 517T335 540Q401 540 449 517T523 448T549 334Q549 259 530 197T475 89T388 18T270 -7ZM302 100Q355 100 396 125T461 196T485 300Q485 362 449 398T344
434Q292 434 250 409T185 338T161 234Q161 172 197 136T302 100ZM432 0L457 122L490 264L507 407L574 742H699L551 0H432Z" />
<glyph unicode="e" horiz-adv-x="619" d="M297 -7Q217 -7 158 22T67 104T34 228Q34 319 74 389T183 499T342 540Q417 540 472 512T557 432T588 306Q588 287 586 267T580 230H127L141 313H521L470 285Q478 336 463 370T415 422T336 440Q281 440 241 415T178 343T156
234Q156 169 193 134T310 99Q355 99 396 113T464 154L516 67Q474 30 417 12T297 -7Z" />
<glyph unicode="f" horiz-adv-x="369" d="M45 0L159 568Q176 652 230 700T374 749Q408 749 439 741T491 717L440 626Q413 648 374 648Q335 648 312 626T279 559L266 499L260 448L170 0H45ZM44 430L64 530H419L399 430H44Z" />
<glyph unicode="g" horiz-adv-x="694" d="M245 -201Q169 -201 105 -183T-5 -128L60 -34Q91 -61 142 -77T253 -94Q341 -94 386 -56T446 60L468 170L501 283L521 404L546 534H665L575 81Q545 -68 463 -134T245 -201ZM276 24Q207 24 153 50T68 126T37 245Q37 308
59 361T122 455T218 517T340 540Q398 540 447 520T525 454T552 334Q550 246 517 176T423 65T276 24ZM304 130Q358 130 399 153T463 218T487 312Q487 369 450 401T347 434Q293 434 252 411T187 346T163 252Q163 195 200 163T304 130Z" />
<glyph unicode="h" horiz-adv-x="685" d="M426 540Q495 540 542 512T610 430T614 296L555 0H430L488 293Q501 358 476 394T385 431Q316 431 271 393T210 277L154 0H29L177 742H302L230 382L204 430Q242 487 299 513T426 540Z" />
<glyph unicode="i" horiz-adv-x="289" d="M29 0L135 534H260L154 0H29ZM226 622Q192 622 172 642T151 692Q151 726 174 749T236 772Q269 772 290 753T311 705Q311 668 288 645T226 622Z" />
<glyph unicode="j" horiz-adv-x="295" d="M-56 -201Q-93 -201 -124 -194T-179 -170L-127 -77Q-98 -98 -56 -98Q-20 -98 0 -78T31 -12L140 534H265L156 -10Q118 -201 -56 -201ZM230 622Q196 622 176 642T155 692Q155 726 178 749T240 772Q273 772 294 753T315 705Q315
668 292 645T230 622Z" />
<glyph unicode="k" horiz-adv-x="625" d="M159 123L186 277L507 534H677L377 292L310 243L159 123ZM29 0L177 742H302L154 0H29ZM437 0L288 241L374 337L582 0H437Z" />
<glyph unicode="l" horiz-adv-x="289" d="M29 0L177 742H302L154 0H29Z" />
<glyph unicode="m" horiz-adv-x="1053" d="M795 540Q865 540 912 512T978 430T981 296L922 0H797L856 293Q869 359 845 395T758 431Q693 431 652 394T594 278L538 0H413L472 293Q485 359 461 395T374 431Q309 431 268 394T210 277L154 0H29L135 534H254L225 387L204
430Q241 487 296 513T418 540Q470 540 510 523T574 470T603 382L543 395Q584 467 648 503T795 540Z" />
<glyph unicode="n" horiz-adv-x="685" d="M426 540Q495 540 543 512T610 430T614 296L555 0H430L488 293Q501 358 476 394T385 431Q316 431 271 393T210 277L154 0H29L135 534H254L224 382L204 430Q242 487 299 513T426 540Z" />
<glyph unicode="o" horiz-adv-x="645" d="M293 -7Q215 -7 157 22T66 104T34 228Q34 318 75 388T187 499T351 540Q430 540 488 512T579 431T611 306Q611 217 570 146T458 34T293 -7ZM301 100Q355 100 396 125T461 196T485 300Q485 362 448 398T344 434Q291 434
250 409T184 338T160 234Q160 171 197 136T301 100Z" />
<glyph unicode="p" horiz-adv-x="686" d="M352 -7Q285 -7 236 17T162 90T139 211Q141 311 175 385T270 499T417 540Q483 540 536 513T620 433T652 306Q652 238 630 181T566 82T471 17T352 -7ZM-10 -194L135 534H254L230 412L197 270L179 127L115 -194H-10ZM342
100Q396 100 437 125T502 196T526 300Q526 362 489 398T385 434Q332 434 291 409T225 338T201 234Q201 172 238 136T342 100Z" />
<glyph unicode="q" horiz-adv-x="686" d="M269 -7Q204 -7 151 21T66 101T34 228Q34 296 56 353T120 452T215 517T335 540Q402 540 450 516T524 444T547 323Q545 224 511 150T416 34T269 -7ZM301 100Q355 100 396 125T461 196T485 300Q485 362 448 398T344 434Q291
434 250 409T184 338T160 234Q160 172 197 136T301 100ZM387 -194L450 124L489 263L510 394L538 534H657L512 -194H387Z" />
<glyph unicode="r" horiz-adv-x="420" d="M29 0L135 534H254L224 382L213 426Q250 491 307 515T446 540L423 421Q415 423 408 423T392 424Q319 424 271 386T207 263L154 0H29Z" />
<glyph unicode="s" horiz-adv-x="515" d="M211 -7Q141 -7 80 10T-14 51L38 147Q71 124 120 110T224 95Q286 95 315 112T345 159Q345 181 324 192T271 210T201 225T131 247T77 288T56 360Q56 417 88 457T177 518T310 540Q364 540 416 528T502 494L456 398Q420 421
379 430T298 439Q237 439 208 421T178 374Q178 352 199 340T252 321T322 306T392 284T446 244T467 173Q467 115 435 75T344 14T211 -7Z" />
<glyph unicode="t" horiz-adv-x="424" d="M229 -7Q177 -7 140 15T86 79T80 178L175 652H300L205 179Q199 142 213 119T266 96Q284 96 302 101T336 117L358 25Q330 7 296 0T229 -7ZM44 430L64 530H419L399 430H44Z" />
<glyph unicode="u" horiz-adv-x="681" d="M258 -7Q191 -7 144 21T76 104T72 238L131 534H256L197 241Q185 176 209 140T299 103Q366 103 411 141T472 257L528 534H652L546 0H427L457 152L477 104Q439 47 382 20T258 -7Z" />
<glyph unicode="v" horiz-adv-x="578" d="M172 0L49 534H172L278 63H215L510 534H636L301 0H172Z" />
<glyph unicode="w" horiz-adv-x="922" d="M152 0L54 534H168L250 63H192L459 534H566L651 63H593L857 534H975L677 0H554L473 417H510L273 0H152Z" />
<glyph unicode="x" horiz-adv-x="573" d="M-46 0L254 309L240 244L77 534H207L325 320L267 321L471 534H611L324 236L334 305L507 0H375L252 223H309L98 0H-46Z" />
<glyph unicode="y" horiz-adv-x="578" d="M43 -201Q3 -201 -35 -188T-97 -154L-35 -63Q-18 -78 3 -87T53 -97Q84 -97 108 -81T158 -24L205 49L217 62L511 534H636L268 -47Q231 -105 197 -139T127 -187T43 -201ZM180 -19L49 534H174L279 73L180 -19Z" />
<glyph unicode="z" horiz-adv-x="532" d="M-16 0L-1 79L402 477L424 434H79L99 534H544L528 455L126 57L102 100H465L445 0H-16Z" />
<glyph unicode="{" horiz-adv-x="371" d="M210 -194Q159 -194 125 -174T78 -115T75 -25L115 175Q120 200 111 211T81 223H46L66 325H100Q122 325 135 337T154 373L196 583Q213 666 260 704T397 742H448L428 640H407Q367 640 347 622T319 569L280 376Q272 336 259
314T223 281T160 266L164 281Q211 276 230 250T239 172L203 -10Q195 -51 210 -71T259 -92H281L261 -194H210Z" />
<glyph unicode="|" horiz-adv-x="303" d="M2 -194L189 742H304L117 -194H2Z" />
<glyph unicode="}" horiz-adv-x="371" d="M-74 -194L-54 -92H-34Q7 -92 27 -74T55 -21L94 172Q102 212 115 234T152 268T213 282L210 267Q162 272 143 298T135 376L171 558Q179 599 164 619T115 640H93L113 742H163Q214 742 248 722T295 663T298 573L259 373Q254
349 263 337T293 325H327L307 223H273Q252 223 239 212T220 175L177 -35Q160 -117 113 -155T-24 -194H-74Z" />
<glyph unicode="~" horiz-adv-x="590" d="M410 258Q371 258 344 272T298 304T260 336T217 350Q186 350 164 328T135 266H55Q63 327 87 366T145 424T216 444Q256 444 282 430T327 397T365 365T407 351Q439 351 461 374T490 436H570Q562 377 538 337T481 278T410 258Z" />
<glyph unicode="&#xa0;" horiz-adv-x="276" />
<glyph unicode="&#xa1;" horiz-adv-x="278" d="M-19 -154L97 302H195L129 -154H-19ZM175 386Q141 386 120 406T98 457Q98 481 109 499T139 529T182 540Q216 540 237 519T258 468Q258 433 235 410T175 386Z" />
<glyph unicode="&#xa2;" horiz-adv-x="581" d="M296 -7Q217 -7 158 22T66 104T34 228Q34 318 75 388T188 499T354 540Q435 540 493 509T584 415L477 360Q459 398 426 416T344 434Q292 434 250 409T184 338T160 234Q160 172 197 136T302 100Q346 100 384 118T448
174L540 112Q503 56 438 25T296 -7ZM199 -120L353 654H435L280 -120H199Z" />
<glyph unicode="&#xa3;" horiz-adv-x="657" d="M86 16L169 437Q189 532 239 592T361 681T515 710Q578 710 630 697T717 659L661 557Q629 578 590 587T507 596Q422 596 369 558T298 428L215 16H86ZM-23 0L-1 109H594L572 0H-23ZM37 309L54 391H543L526 309H37Z" />
<glyph unicode="&#xa4;" horiz-adv-x="700" d="M152 452L38 565L109 640L223 527L152 452ZM567 452L496 527L610 640L681 565L567 452ZM610 -5L496 108L567 183L681 70L610 -5ZM109 -5L38 70L152 183L223 108L109 -5ZM360 59Q305 59 257 79T172 135T114 218T93
320Q93 374 114 421T171 505T256 561T360 582Q416 582 464 562T549 505T607 422T628 320Q628 266 607 219T550 135T465 79T360 59ZM360 160Q406 160 444 181T505 239T529 319Q529 364 506 401T444 459T360 481Q314 481 276 460T216 401T193 319Q193 276 215 240T276
182T360 160Z" />
<glyph unicode="&#xa5;" horiz-adv-x="721" d="M242 0L303 305L318 233L78 700H211L408 306H328L681 700H817L389 221L433 305L372 0H242ZM63 104L77 174H605L591 104H63ZM91 242L105 312H633L619 242H91Z" />
<glyph unicode="&#xa6;" horiz-adv-x="303" d="M119 392L189 742H304L234 392H119ZM2 -194L72 156H187L117 -194H2Z" />
<glyph unicode="&#xa7;" horiz-adv-x="511" d="M347 147L275 206Q325 218 351 243T378 299Q378 327 358 341T308 365T242 383T176 408T126 451T106 524Q106 581 139 622T232 685T367 707Q400 707 436 702T504 686T561 658L512 567Q478 590 438 600T356 611Q287
611 252 588T217 532Q217 507 236 494T287 472T352 454T417 429T467 386T487 313Q487 253 446 210T347 147ZM166 -106Q108 -106 54 -90T-35 -44L13 46Q50 18 90 4T180 -10Q241 -10 274 13T307 69Q307 93 288 107T238 130T172 148T107 174T57 216T37 287Q37 344
76 389T175 453L246 394Q197 381 172 356T146 301Q146 275 165 261T216 237T282 218T348 193T399 150T419 77Q419 22 387 -20T297 -84T166 -106Z" />
<glyph unicode="&#xa8;" horiz-adv-x="600" d="M475 618Q451 618 435 633T419 672Q419 702 438 720T483 739Q506 739 523 724T540 684Q540 655 521 637T475 618ZM282 618Q258 618 242 633T225 672Q225 702 244 720T288 739Q313 739 329 724T345 684Q345 655 326
637T282 618Z" />
<glyph unicode="&#xa9;" horiz-adv-x="794" d="M413 -3Q338 -3 274 24T162 99T88 212T61 350Q61 424 88 488T163 600T275 676T415 703Q490 703 554 677T666 602T740 491T767 352Q767 277 740 213T665 100T552 24T413 -3ZM412 52Q476 52 530 75T624 138T686 234T709
352Q709 415 687 469T626 563T533 625T415 648Q351 648 297 626T202 562T140 467T118 350Q118 287 140 233T202 138T296 75T412 52ZM424 146Q363 146 315 172T240 244T213 350Q213 410 240 456T315 528T424 554Q481 554 524 531T590 467L518 419Q501 445 477 457T423
469Q391 469 365 455T324 414T309 350Q309 313 324 287T365 246T423 231Q452 231 476 243T518 281L590 235Q568 194 525 170T424 146Z" />
<glyph unicode="&#xaa;" horiz-adv-x="409" d="M300 426L313 490L309 502L332 613Q340 646 321 664T262 683Q234 683 204 675T153 652L131 709Q158 728 198 738T278 749Q357 749 394 713T418 604L382 426H300ZM198 422Q142 422 112 447T82 506Q82 542 102 565T158
600T237 612H341L332 561H241Q205 561 186 550T167 516Q167 480 223 480Q253 480 276 490T316 522L322 479Q304 456 277 439T198 422Z" />
<glyph unicode="&#xab;" horiz-adv-x="535" d="M145 74L42 267L222 461H338L124 222L131 322L255 74H145ZM353 74L250 267L430 461H546L332 222L339 322L463 74H353Z" />
<glyph unicode="&#xac;" horiz-adv-x="592" d="M553 401L499 124H392L427 301H71L91 401H553Z" />
<glyph unicode="&#xad;" horiz-adv-x="385" d="M48 226L68 330H343L322 226H48Z" />
<glyph unicode="&#xae;" horiz-adv-x="794" d="M413 -3Q338 -3 274 24T162 99T88 212T61 350Q61 424 88 488T163 600T275 676T415 703Q490 703 554 677T666 602T740 491T767 352Q767 277 740 213T665 100T552 24T413 -3ZM519 153L421 304H507L605 153H519ZM412
52Q476 52 530 75T624 138T686 234T709 352Q709 415 687 469T626 563T533 625T415 648Q351 648 297 626T202 562T140 467T118 350Q118 287 140 233T202 138T296 75T412 52ZM266 153V547H430Q508 547 552 510T596 410Q596 345 552 309T430 273H351V153H266ZM351
340H425Q466 340 489 358T513 410Q513 443 490 461T425 479H351V340Z" />
<glyph unicode="&#xaf;" horiz-adv-x="600" d="M201 638L215 713H562L548 638H201Z" />
<glyph unicode="&#xb0;" horiz-adv-x="418" d="M264 373Q217 373 178 395T117 456T95 540Q95 587 117 625T178 685T264 708Q312 708 350 686T411 625T434 541Q434 494 412 456T351 396T264 373ZM265 439Q293 439 315 452T351 488T365 540Q365 569 352 592T316
629T265 642Q236 642 213 629T177 593T164 540Q164 511 177 488T213 452T265 439Z" />
<glyph unicode="&#xb1;" horiz-adv-x="590" d="M11 0L31 102H493L473 0H11ZM227 197L314 633H421L334 197H227ZM83 365L103 464H564L544 365H83Z" />
<glyph unicode="&#xb2;" horiz-adv-x="430" d="M55 327L66 383L276 534Q305 554 320 569T342 597T348 624Q348 648 328 661T270 674Q236 674 208 663T159 632L104 677Q133 710 178 729T284 749Q355 749 397 717T439 634Q439 612 432 591T403 547T334 490L163 366L143
398H410L396 327H55Z" />
<glyph unicode="&#xb3;" horiz-adv-x="430" d="M222 320Q167 320 121 334T50 371L87 438Q113 418 151 407T229 395Q279 395 308 412T337 461Q337 485 318 497T260 509H201L213 567L366 703L380 671H119L133 742H462L451 686L296 550L254 575H284Q355 575 391 545T427
466Q427 422 402 389T330 338T222 320Z" />
<glyph unicode="&#xb4;" horiz-adv-x="600" d="M282 607L433 744H583L394 607H282Z" />
<glyph unicode="&#xb5;" horiz-adv-x="686" d="M-10 -194L135 534H260L202 241Q189 175 214 139T304 103Q370 103 415 141T477 257L532 534H657L551 0H434L464 152L483 108Q460 68 427 43T359 5T290 -7Q231 -7 193 13T135 74L179 118L115 -194H-10Z" />
<glyph unicode="&#xb6;" horiz-adv-x="666" d="M153 -100L247 371Q198 373 158 391T95 444T72 528Q72 602 107 649T204 719T347 742H667L499 -100H396L545 648H405L256 -100H153Z" />
<glyph unicode="&#xb7;" horiz-adv-x="284" d="M140 195Q107 195 85 217T62 272Q62 312 88 336T148 361Q183 361 204 340T226 283Q226 257 214 238T183 207T140 195Z" />
<glyph unicode="&#xb8;" horiz-adv-x="600" d="M179 -228Q152 -228 129 -223T88 -207L118 -148Q134 -156 151 -160T187 -164Q218 -164 232 -153T246 -126Q246 -111 235 -103T199 -95H168L214 7H282L258 -49Q294 -54 312 -74T330 -123Q328 -172 287 -200T179 -228Z" />
<glyph unicode="&#xb9;" horiz-adv-x="430" d="M200 337L274 710L308 673H167L180 742H372L291 337H200ZM88 327L101 396H399L386 327H88Z" />
<glyph unicode="&#xba;" horiz-adv-x="423" d="M255 422Q206 422 169 440T111 491T90 566Q90 620 117 661T190 725T296 749Q345 749 382 731T439 680T460 605Q460 552 433 511T360 446T255 422ZM262 493Q294 493 319 507T359 545T373 601Q373 637 350 657T289
678Q255 678 230 664T191 625T177 570Q177 535 200 514T262 493Z" />
<glyph unicode="&#xbb;" horiz-adv-x="536" d="M183 461L286 267L105 74H-11L204 312L197 213L72 461H183ZM391 461L494 267L313 74H197L412 312L405 213L280 461H391Z" />
<glyph unicode="&#xbc;" horiz-adv-x="1039" d="M192 295L266 668L300 631H159L172 700H364L283 295H192ZM80 285L93 354H391L378 285H80ZM179 0L790 700H893L281 0H179ZM591 92L602 150L847 415H949L703 150L660 163H996L982 92H591ZM800 0L819 92L841 162L856
240H935L887 0H800Z" />
<glyph unicode="&#xbd;" horiz-adv-x="1039" d="M192 295L266 668L300 631H159L172 700H364L283 295H192ZM80 285L93 354H391L378 285H80ZM179 0L790 700H893L281 0H179ZM599 0L610 56L820 207Q849 227 864 242T886 270T892 297Q892 321 872 334T814 347Q780 347
752 336T703 305L648 350Q677 383 722 402T828 422Q899 422 941 390T983 307Q983 285 976 264T947 220T878 163L707 39L687 71H954L940 0H599Z" />
<glyph unicode="&#xbe;" horiz-adv-x="1039" d="M214 278Q159 278 113 292T42 329L79 396Q105 376 143 365T221 353Q271 353 300 370T329 419Q329 443 310 455T252 467H193L205 525L358 661L372 629H111L125 700H454L443 644L288 508L246 533H276Q347 533 383
503T419 424Q419 380 394 347T322 296T214 278ZM179 0L790 700H893L281 0H179ZM591 92L602 150L847 415H949L703 150L660 163H996L982 92H591ZM800 0L819 92L841 162L856 240H935L887 0H800Z" />
<glyph unicode="&#xbf;" horiz-adv-x="581" d="M235 -164Q167 -164 117 -144T40 -87T12 -3Q12 40 26 71T64 126T114 169T167 208T213 250T241 302H368Q361 264 342 237T297 187T245 147T196 109T159 69T144 18Q144 -14 173 -35T258 -56Q313 -56 356 -36T431 22L515
-47Q471 -101 399 -132T235 -164ZM333 386Q300 386 279 406T257 457Q257 481 268 500T298 529T340 540Q374 540 395 519T417 469Q417 433 393 410T333 386Z" />
<glyph unicode="&#xc0;" horiz-adv-x="749" d="M-58 0L397 700H526L700 0H571L425 633H477L81 0H-58ZM120 162L175 264H552L569 162H120ZM448 757L301 894H447L556 757H448Z" />
<glyph unicode="&#xc1;" horiz-adv-x="749" d="M-58 0L397 700H526L700 0H571L425 633H477L81 0H-58ZM120 162L175 264H552L569 162H120ZM386 757L537 894H687L498 757H386Z" />
<glyph unicode="&#xc2;" horiz-adv-x="749" d="M-58 0L397 700H526L700 0H571L425 633H477L81 0H-58ZM120 162L175 264H552L569 162H120ZM282 757L433 894H547L663 757H563L440 872H537L387 757H282Z" />
<glyph unicode="&#xc3;" horiz-adv-x="749" d="M-58 0L397 700H526L700 0H571L425 633H477L81 0H-58ZM120 162L175 264H552L569 162H120ZM554 757Q529 757 511 766T477 789T447 813T417 823Q396 823 382 807T363 763H296Q307 828 339 862T418 897Q443 897 462
887T495 864T524 841T554 831Q576 831 590 847T608 888H675Q665 826 633 792T554 757Z" />
<glyph unicode="&#xc4;" horiz-adv-x="749" d="M-58 0L397 700H526L700 0H571L425 633H477L81 0H-58ZM120 162L175 264H552L569 162H120ZM579 768Q555 768 539 783T523 822Q523 852 542 870T587 889Q610 889 627 874T644 834Q644 805 625 787T579 768ZM386 768Q362
768 346 783T329 822Q329 852 348 870T392 889Q417 889 433 874T449 834Q449 805 430 787T386 768Z" />
<glyph unicode="&#xc5;" horiz-adv-x="749" d="M-58 0L397 700H526L700 0H571L425 633H477L81 0H-58ZM120 162L175 264H552L569 162H120ZM495 759Q462 759 436 775T395 816T379 873Q379 905 394 931T436 973T495 989Q529 989 555 974T597 932T613 873Q613 842
598 816T556 775T495 759ZM496 810Q524 810 541 828T559 873Q559 901 541 919T495 938Q469 938 451 920T433 873Q433 846 450 828T496 810Z" />
<glyph unicode="&#xc6;" horiz-adv-x="1064" d="M-59 0L482 700H619L600 593H487L579 647L85 0H-59ZM169 162L193 264H532L513 162H169ZM436 0L576 700H1085L1063 591H682L586 109H981L959 0H436ZM613 302L636 409H985L963 302H613Z" />
<glyph unicode="&#xc7;" horiz-adv-x="727" d="M396 -10Q289 -10 213 28T97 133T56 289Q56 378 86 454T174 588T310 677T487 710Q578 710 647 680T753 593L659 514Q630 554 585 575T478 596Q411 596 357 573T265 509T207 413T187 297Q187 240 212 196T286 128T406
104Q465 104 515 124T605 185L681 103Q630 45 557 18T396 -10ZM289 -228Q262 -228 239 -223T198 -207L228 -148Q244 -156 261 -160T297 -164Q328 -164 342 -153T356 -126Q356 -111 345 -103T309 -95H278L324 7H392L368 -49Q404 -54 422 -74T440 -123Q438 -172 397
-200T289 -228Z" />
<glyph unicode="&#xc8;" horiz-adv-x="670" d="M242 409H591L570 302H221L242 409ZM192 109H588L566 0H41L181 700H692L670 591H288L192 109ZM424 757L277 894H423L532 757H424Z" />
<glyph unicode="&#xc9;" horiz-adv-x="670" d="M242 409H591L570 302H221L242 409ZM192 109H588L566 0H41L181 700H692L670 591H288L192 109ZM362 757L513 894H663L474 757H362Z" />
<glyph unicode="&#xca;" horiz-adv-x="670" d="M242 409H591L570 302H221L242 409ZM192 109H588L566 0H41L181 700H692L670 591H288L192 109ZM258 757L409 894H523L639 757H539L416 872H513L363 757H258Z" />
<glyph unicode="&#xcb;" horiz-adv-x="670" d="M242 409H591L570 302H221L242 409ZM192 109H588L566 0H41L181 700H692L670 591H288L192 109ZM555 768Q531 768 515 783T499 822Q499 852 518 870T563 889Q586 889 603 874T620 834Q620 805 601 787T555 768ZM362
768Q338 768 322 783T305 822Q305 852 324 870T368 889Q393 889 409 874T425 834Q425 805 406 787T362 768Z" />
<glyph unicode="&#xcc;" horiz-adv-x="319" d="M41 0L181 700H311L171 0H41ZM233 757L86 894H232L341 757H233Z" />
<glyph unicode="&#xcd;" horiz-adv-x="319" d="M41 0L181 700H311L171 0H41ZM171 757L322 894H472L283 757H171Z" />
<glyph unicode="&#xce;" horiz-adv-x="319" d="M41 0L181 700H311L171 0H41ZM67 757L218 894H332L448 757H348L225 872H322L172 757H67Z" />
<glyph unicode="&#xcf;" horiz-adv-x="319" d="M41 0L181 700H311L171 0H41ZM364 768Q340 768 324 783T308 822Q308 852 327 870T372 889Q395 889 412 874T429 834Q429 805 410 787T364 768ZM171 768Q147 768 131 783T114 822Q114 852 133 870T177 889Q202 889
218 874T234 834Q234 805 215 787T171 768Z" />
<glyph unicode="&#xd0;" horiz-adv-x="836" d="M51 0L191 700H474Q581 700 657 665T773 564T814 411Q814 318 783 242T694 113T556 30T378 0H51ZM203 110H382Q476 110 543 148T647 253T683 403Q683 460 658 502T584 567T460 590H299L203 110ZM269 308L289 404H705L685
308H269Z" />
<glyph unicode="&#xd1;" horiz-adv-x="810" d="M41 0L181 700H288L607 157L566 162L673 700H802L662 0H555L237 543L278 538L170 0H41ZM585 757Q560 757 542 766T508 789T478 813T448 823Q427 823 413 807T394 763H327Q338 828 370 862T449 897Q474 897 493 887T526
864T555 841T585 831Q607 831 621 847T639 888H706Q696 826 664 792T585 757Z" />
<glyph unicode="&#xd2;" horiz-adv-x="842" d="M391 -10Q285 -10 210 28T96 133T56 289Q56 378 86 454T173 588T309 677T485 710Q590 710 665 672T780 567T820 411Q820 322 790 246T702 112T567 23T391 -10ZM402 104Q468 104 521 127T611 192T669 288T689 403Q689
460 664 504T591 572T473 596Q408 596 355 573T264 508T207 412T187 297Q187 240 211 196T284 128T402 104ZM494 757L347 894H493L602 757H494Z" />
<glyph unicode="&#xd3;" horiz-adv-x="842" d="M391 -10Q285 -10 210 28T96 133T56 289Q56 378 86 454T173 588T309 677T485 710Q590 710 665 672T780 567T820 411Q820 322 790 246T702 112T567 23T391 -10ZM402 104Q468 104 521 127T611 192T669 288T689 403Q689
460 664 504T591 572T473 596Q408 596 355 573T264 508T207 412T187 297Q187 240 211 196T284 128T402 104ZM432 757L583 894H733L544 757H432Z" />
<glyph unicode="&#xd4;" horiz-adv-x="842" d="M391 -10Q285 -10 210 28T96 133T56 289Q56 378 86 454T173 588T309 677T485 710Q590 710 665 672T780 567T820 411Q820 322 790 246T702 112T567 23T391 -10ZM402 104Q468 104 521 127T611 192T669 288T689 403Q689
460 664 504T591 572T473 596Q408 596 355 573T264 508T207 412T187 297Q187 240 211 196T284 128T402 104ZM328 757L479 894H593L709 757H609L486 872H583L433 757H328Z" />
<glyph unicode="&#xd5;" horiz-adv-x="842" d="M391 -10Q285 -10 210 28T96 133T56 289Q56 378 86 454T173 588T309 677T485 710Q590 710 665 672T780 567T820 411Q820 322 790 246T702 112T567 23T391 -10ZM402 104Q468 104 521 127T611 192T669 288T689 403Q689
460 664 504T591 572T473 596Q408 596 355 573T264 508T207 412T187 297Q187 240 211 196T284 128T402 104ZM600 757Q575 757 557 766T523 789T493 813T463 823Q442 823 428 807T409 763H342Q353 828 385 862T464 897Q489 897 508 887T541 864T570 841T600 831Q622
831 636 847T654 888H721Q711 826 679 792T600 757Z" />
<glyph unicode="&#xd6;" horiz-adv-x="842" d="M391 -10Q285 -10 210 28T96 133T56 289Q56 378 86 454T173 588T309 677T485 710Q590 710 665 672T780 567T820 411Q820 322 790 246T702 112T567 23T391 -10ZM402 104Q468 104 521 127T611 192T669 288T689 403Q689
460 664 504T591 572T473 596Q408 596 355 573T264 508T207 412T187 297Q187 240 211 196T284 128T402 104ZM625 768Q601 768 585 783T569 822Q569 852 588 870T633 889Q656 889 673 874T690 834Q690 805 671 787T625 768ZM432 768Q408 768 392 783T375 822Q375
852 394 870T438 889Q463 889 479 874T495 834Q495 805 476 787T432 768Z" />
<glyph unicode="&#xd7;" horiz-adv-x="590" d="M99 225L462 551L525 475L162 149L99 225ZM132 481L207 551L492 219L417 149L132 481Z" />
<glyph unicode="&#xd8;" horiz-adv-x="842" d="M391 -10Q285 -10 210 28T96 133T56 289Q56 378 86 454T173 588T309 677T485 710Q590 710 665 672T780 567T820 411Q820 322 790 246T702 112T567 23T391 -10ZM402 104Q468 104 521 127T611 192T669 288T689 403Q689
460 664 504T591 572T473 596Q408 596 355 573T264 508T207 412T187 297Q187 240 211 196T284 128T402 104ZM6 -70L773 770H869L103 -70H6Z" />
<glyph unicode="&#xd9;" horiz-adv-x="789" d="M361 -10Q262 -10 196 29T104 138T96 305L175 700H305L226 307Q217 256 221 218T245 154T297 116T374 104Q430 104 470 125T538 191T581 308L659 700H787L707 299Q676 145 589 68T361 -10ZM469 757L322 894H468L577
757H469Z" />
<glyph unicode="&#xda;" horiz-adv-x="789" d="M361 -10Q262 -10 196 29T104 138T96 305L175 700H305L226 307Q217 256 221 218T245 154T297 116T374 104Q430 104 470 125T538 191T581 308L659 700H787L707 299Q676 145 589 68T361 -10ZM407 757L558 894H708L519
757H407Z" />
<glyph unicode="&#xdb;" horiz-adv-x="789" d="M361 -10Q262 -10 196 29T104 138T96 305L175 700H305L226 307Q217 256 221 218T245 154T297 116T374 104Q430 104 470 125T538 191T581 308L659 700H787L707 299Q676 145 589 68T361 -10ZM303 757L454 894H568L684
757H584L461 872H558L408 757H303Z" />
<glyph unicode="&#xdc;" horiz-adv-x="789" d="M361 -10Q262 -10 196 29T104 138T96 305L175 700H305L226 307Q217 256 221 218T245 154T297 116T374 104Q430 104 470 125T538 191T581 308L659 700H787L707 299Q676 145 589 68T361 -10ZM600 768Q576 768 560 783T544
822Q544 852 563 870T608 889Q631 889 648 874T665 834Q665 805 646 787T600 768ZM407 768Q383 768 367 783T350 822Q350 852 369 870T413 889Q438 889 454 874T470 834Q470 805 451 787T407 768Z" />
<glyph unicode="&#xdd;" horiz-adv-x="661" d="M212 0L267 279L282 195L78 700H207L370 296L294 295L621 700H757L353 194L397 279L341 0H212ZM342 757L493 894H643L454 757H342Z" />
<glyph unicode="&#xde;" horiz-adv-x="726" d="M167 121L188 230H372Q466 230 518 272T571 395Q571 452 532 480T422 508H245L265 618H439Q564 618 633 563T702 407Q702 318 662 254T546 155T368 121H167ZM41 0L181 700H311L171 0H41Z" />
<glyph unicode="&#xdf;" horiz-adv-x="684" d="M360 -7Q323 -7 289 -1T235 13L267 114Q287 107 309 103T358 99Q403 99 437 113T490 157T509 225Q509 271 476 293T388 315H333L354 418Q404 419 441 436T500 484T521 557Q521 598 494 620T417 643Q355 643 312 610T254
504L153 0H28L127 493Q145 582 187 638T290 722T427 749Q492 749 540 728T615 666T642 570Q642 507 611 457T523 377T393 347L430 402Q490 402 536 382T608 324T635 231Q635 159 599 106T501 23T360 -7Z" />
<glyph unicode="&#xe0;" horiz-adv-x="686" d="M269 -7Q204 -7 151 21T66 101T34 228Q34 296 56 353T120 452T215 517T335 540Q402 540 450 516T524 444T547 323Q545 224 511 150T416 34T269 -7ZM301 100Q355 100 396 125T461 196T485 300Q485 362 448 398T344
434Q291 434 250 409T184 338T160 234Q160 172 197 136T301 100ZM432 0L456 122L490 264L507 407L532 534H657L551 0H432ZM386 607L239 744H385L494 607H386Z" />
<glyph unicode="&#xe1;" horiz-adv-x="686" d="M269 -7Q204 -7 151 21T66 101T34 228Q34 296 56 353T120 452T215 517T335 540Q402 540 450 516T524 444T547 323Q545 224 511 150T416 34T269 -7ZM301 100Q355 100 396 125T461 196T485 300Q485 362 448 398T344
434Q291 434 250 409T184 338T160 234Q160 172 197 136T301 100ZM432 0L456 122L490 264L507 407L532 534H657L551 0H432ZM324 607L475 744H625L436 607H324Z" />
<glyph unicode="&#xe2;" horiz-adv-x="686" d="M269 -7Q204 -7 151 21T66 101T34 228Q34 296 56 353T120 452T215 517T335 540Q402 540 450 516T524 444T547 323Q545 224 511 150T416 34T269 -7ZM301 100Q355 100 396 125T461 196T485 300Q485 362 448 398T344
434Q291 434 250 409T184 338T160 234Q160 172 197 136T301 100ZM432 0L456 122L490 264L507 407L532 534H657L551 0H432ZM220 607L371 744H485L601 607H501L378 722H475L325 607H220Z" />
<glyph unicode="&#xe3;" horiz-adv-x="686" d="M269 -7Q204 -7 151 21T66 101T34 228Q34 296 56 353T120 452T215 517T335 540Q402 540 450 516T524 444T547 323Q545 224 511 150T416 34T269 -7ZM301 100Q355 100 396 125T461 196T485 300Q485 362 448 398T344
434Q291 434 250 409T184 338T160 234Q160 172 197 136T301 100ZM432 0L456 122L490 264L507 407L532 534H657L551 0H432ZM492 607Q467 607 449 616T415 639T385 663T355 673Q334 673 320 657T301 613H234Q245 678 277 712T356 747Q381 747 400 737T433 714T462
691T492 681Q514 681 528 697T546 738H613Q603 676 571 642T492 607Z" />
<glyph unicode="&#xe4;" horiz-adv-x="686" d="M269 -7Q204 -7 151 21T66 101T34 228Q34 296 56 353T120 452T215 517T335 540Q402 540 450 516T524 444T547 323Q545 224 511 150T416 34T269 -7ZM301 100Q355 100 396 125T461 196T485 300Q485 362 448 398T344
434Q291 434 250 409T184 338T160 234Q160 172 197 136T301 100ZM432 0L456 122L490 264L507 407L532 534H657L551 0H432ZM517 618Q493 618 477 633T461 672Q461 702 480 720T525 739Q548 739 565 724T582 684Q582 655 563 637T517 618ZM324 618Q300 618 284 633T267
672Q267 702 286 720T330 739Q355 739 371 724T387 684Q387 655 368 637T324 618Z" />
<glyph unicode="&#xe5;" horiz-adv-x="686" d="M269 -7Q204 -7 151 21T66 101T34 228Q34 296 56 353T120 452T215 517T335 540Q402 540 450 516T524 444T547 323Q545 224 511 150T416 34T269 -7ZM301 100Q355 100 396 125T461 196T485 300Q485 362 448 398T344
434Q291 434 250 409T184 338T160 234Q160 172 197 136T301 100ZM432 0L456 122L490 264L507 407L532 534H657L551 0H432ZM429 593Q396 593 370 609T329 650T313 707Q313 739 328 765T370 807T429 823Q463 823 489 808T531 766T547 707Q547 676 532 650T490 609T429
593ZM430 644Q458 644 475 662T493 707Q493 735 475 753T429 772Q403 772 385 754T367 707Q367 680 384 662T430 644Z" />
<glyph unicode="&#xe6;" horiz-adv-x="992" d="M229 -7Q163 -7 117 12T47 65T22 144Q22 219 81 265T259 312H420L408 229H253Q201 229 173 209T145 152Q145 121 168 103T244 84Q279 84 309 96T359 134T389 201L412 317Q424 374 395 404T298 435Q253 435 209 422T133
386L97 481Q127 501 164 514T242 534T318 540Q413 540 465 506T527 406L466 410Q493 452 531 481T615 525T711 540Q786 540 842 512T929 432T961 306Q961 287 959 267T952 229H497L511 312H885L839 285Q847 336 832 370T783 422T705 440Q651 440 610 415T547 343T524
234Q524 164 562 132T678 99Q727 99 765 113T833 154L887 67Q843 30 785 12T666 -7Q607 -7 556 12T468 70T418 171L487 169Q465 102 426 64T336 10T229 -7Z" />
<glyph unicode="&#xe7;" horiz-adv-x="581" d="M296 -7Q217 -7 158 22T66 104T34 228Q34 318 75 388T188 499T354 540Q435 540 493 509T584 415L477 360Q459 398 426 416T344 434Q292 434 250 409T184 338T160 234Q160 172 197 136T302 100Q346 100 384 118T448
174L540 112Q503 56 438 25T296 -7ZM210 -228Q183 -228 160 -223T119 -207L149 -148Q165 -156 182 -160T218 -164Q249 -164 263 -153T277 -126Q277 -111 266 -103T230 -95H199L245 7H313L289 -49Q325 -54 343 -74T361 -123Q359 -172 318 -200T210 -228Z" />
<glyph unicode="&#xe8;" horiz-adv-x="619" d="M297 -7Q217 -7 158 22T67 104T34 228Q34 319 74 389T183 499T342 540Q417 540 472 512T557 432T588 306Q588 287 586 267T580 230H127L141 313H521L470 285Q478 336 463 370T415 422T336 440Q281 440 241 415T178
343T156 234Q156 169 193 134T310 99Q355 99 396 113T464 154L516 67Q474 30 417 12T297 -7ZM350 862L203 999H349L458 862H350Z" />
<glyph unicode="&#xe9;" horiz-adv-x="619" d="M297 -7Q217 -7 158 22T67 104T34 228Q34 319 74 389T183 499T342 540Q417 540 472 512T557 432T588 306Q588 287 586 267T580 230H127L141 313H521L470 285Q478 336 463 370T415 422T336 440Q281 440 241 415T178
343T156 234Q156 169 193 134T310 99Q355 99 396 113T464 154L516 67Q474 30 417 12T297 -7ZM288 862L439 999H589L400 862H288Z" />
<glyph unicode="&#xea;" horiz-adv-x="619" d="M297 -7Q217 -7 158 22T67 104T34 228Q34 319 74 389T183 499T342 540Q417 540 472 512T557 432T588 306Q588 287 586 267T580 230H127L141 313H521L470 285Q478 336 463 370T415 422T336 440Q281 440 241 415T178
343T156 234Q156 169 193 134T310 99Q355 99 396 113T464 154L516 67Q474 30 417 12T297 -7ZM184 862L335 999H449L565 862H465L342 977H439L289 862H184Z" />
<glyph unicode="&#xeb;" horiz-adv-x="619" d="M297 -7Q217 -7 158 22T67 104T34 228Q34 319 74 389T183 499T342 540Q417 540 472 512T557 432T588 306Q588 287 586 267T580 230H127L141 313H521L470 285Q478 336 463 370T415 422T336 440Q281 440 241 415T178
343T156 234Q156 169 193 134T310 99Q355 99 396 113T464 154L516 67Q474 30 417 12T297 -7ZM481 873Q457 873 441 888T425 927Q425 957 444 975T489 994Q512 994 529 979T546 939Q546 910 527 892T481 873ZM288 873Q264 873 248 888T231 927Q231 957 250 975T294
994Q319 994 335 979T351 939Q351 910 332 892T288 873Z" />
<glyph unicode="&#xec;" horiz-adv-x="289" d="M29 0L135 534H260L154 0H29ZM189 607L42 744H188L297 607H189Z" />
<glyph unicode="&#xed;" horiz-adv-x="289" d="M29 0L135 534H260L154 0H29ZM127 607L278 744H428L239 607H127Z" />
<glyph unicode="&#xee;" horiz-adv-x="289" d="M29 0L135 534H260L154 0H29ZM48 607L176 744H286L379 607H284L188 722H273L148 607H48Z" />
<glyph unicode="&#xef;" horiz-adv-x="289" d="M29 0L135 534H260L154 0H29ZM300 618Q277 618 262 633T246 672Q246 701 263 720T308 739Q330 739 345 724T361 684Q361 656 344 637T300 618ZM146 618Q123 618 108 633T92 672Q92 701 109 720T154 739Q177 739 192
723T207 683Q207 655 190 637T146 618Z" />
<glyph unicode="&#xf0;" horiz-adv-x="648" d="M269 -10Q199 -10 145 16T59 87T28 194Q28 268 65 323T166 411T313 443Q369 443 413 425T486 374T523 293L470 262Q488 298 496 346T506 438Q508 534 457 583T309 632Q277 632 241 627T174 612L177 714Q211 724 248
728T325 733Q417 733 486 699T594 601T634 443Q634 370 618 303T572 179T498 80T396 14T269 -10ZM281 92Q315 92 345 102T399 131T435 174T449 231Q449 282 415 311T320 341Q270 341 233 324T174 276T153 203Q153 152 187 122T281 92ZM209 470L182 545L636 716L663
641L209 470Z" />
<glyph unicode="&#xf1;" horiz-adv-x="685" d="M426 540Q495 540 543 512T610 430T614 296L555 0H430L488 293Q501 358 476 394T385 431Q316 431 271 393T210 277L154 0H29L135 534H254L224 382L204 430Q242 487 299 513T426 540ZM495 607Q470 607 452 616T418
639T388 663T358 673Q337 673 323 657T304 613H237Q248 678 280 712T359 747Q384 747 403 737T436 714T465 691T495 681Q517 681 531 697T549 738H616Q606 676 574 642T495 607Z" />
<glyph unicode="&#xf2;" horiz-adv-x="645" d="M293 -7Q215 -7 157 22T66 104T34 228Q34 318 75 388T187 499T351 540Q430 540 488 512T579 431T611 306Q611 217 570 146T458 34T293 -7ZM301 100Q355 100 396 125T461 196T485 300Q485 362 448 398T344 434Q291
434 250 409T184 338T160 234Q160 171 197 136T301 100ZM363 607L216 744H362L471 607H363Z" />
<glyph unicode="&#xf3;" horiz-adv-x="645" d="M293 -7Q215 -7 157 22T66 104T34 228Q34 318 75 388T187 499T351 540Q430 540 488 512T579 431T611 306Q611 217 570 146T458 34T293 -7ZM301 100Q355 100 396 125T461 196T485 300Q485 362 448 398T344 434Q291
434 250 409T184 338T160 234Q160 171 197 136T301 100ZM301 607L452 744H602L413 607H301Z" />
<glyph unicode="&#xf4;" horiz-adv-x="645" d="M293 -7Q215 -7 157 22T66 104T34 228Q34 318 75 388T187 499T351 540Q430 540 488 512T579 431T611 306Q611 217 570 146T458 34T293 -7ZM301 100Q355 100 396 125T461 196T485 300Q485 362 448 398T344 434Q291
434 250 409T184 338T160 234Q160 171 197 136T301 100ZM197 607L348 744H462L578 607H478L355 722H452L302 607H197Z" />
<glyph unicode="&#xf5;" horiz-adv-x="645" d="M293 -7Q215 -7 157 22T66 104T34 228Q34 318 75 388T187 499T351 540Q430 540 488 512T579 431T611 306Q611 217 570 146T458 34T293 -7ZM301 100Q355 100 396 125T461 196T485 300Q485 362 448 398T344 434Q291
434 250 409T184 338T160 234Q160 171 197 136T301 100ZM469 607Q444 607 426 616T392 639T362 663T332 673Q311 673 297 657T278 613H211Q222 678 254 712T333 747Q358 747 377 737T410 714T439 691T469 681Q491 681 505 697T523 738H590Q580 676 548 642T469
607Z" />
<glyph unicode="&#xf6;" horiz-adv-x="645" d="M293 -7Q215 -7 157 22T66 104T34 228Q34 318 75 388T187 499T351 540Q430 540 488 512T579 431T611 306Q611 217 570 146T458 34T293 -7ZM301 100Q355 100 396 125T461 196T485 300Q485 362 448 398T344 434Q291
434 250 409T184 338T160 234Q160 171 197 136T301 100ZM494 618Q470 618 454 633T438 672Q438 702 457 720T502 739Q525 739 542 724T559 684Q559 655 540 637T494 618ZM301 618Q277 618 261 633T244 672Q244 702 263 720T307 739Q332 739 348 724T364 684Q364
655 345 637T301 618Z" />
<glyph unicode="&#xf7;" horiz-adv-x="590" d="M71 300L91 400H553L533 300H71ZM267 76Q239 76 220 94T201 142Q201 176 223 197T276 219Q303 219 322 201T342 154Q342 120 320 98T267 76ZM347 481Q319 481 300 500T281 547Q281 582 303 603T356 624Q385 624 403
607T422 559Q422 526 401 504T347 481Z" />
<glyph unicode="&#xf8;" horiz-adv-x="645" d="M293 -7Q215 -7 157 22T66 104T34 228Q34 318 75 388T187 499T351 540Q430 540 488 512T579 431T611 306Q611 217 570 146T458 34T293 -7ZM301 100Q355 100 396 125T461 196T485 300Q485 362 448 398T344 434Q291
434 250 409T184 338T160 234Q160 171 197 136T301 100ZM-3 -70L568 602H642L71 -70H-3Z" />
<glyph unicode="&#xf9;" horiz-adv-x="681" d="M258 -7Q191 -7 144 21T76 104T72 238L131 534H256L197 241Q185 176 209 140T299 103Q366 103 411 141T472 257L528 534H652L546 0H427L457 152L477 104Q439 47 382 20T258 -7ZM382 607L235 744H381L490 607H382Z" />
<glyph unicode="&#xfa;" horiz-adv-x="681" d="M258 -7Q191 -7 144 21T76 104T72 238L131 534H256L197 241Q185 176 209 140T299 103Q366 103 411 141T472 257L528 534H652L546 0H427L457 152L477 104Q439 47 382 20T258 -7ZM320 607L471 744H621L432 607H320Z" />
<glyph unicode="&#xfb;" horiz-adv-x="681" d="M258 -7Q191 -7 144 21T76 104T72 238L131 534H256L197 241Q185 176 209 140T299 103Q366 103 411 141T472 257L528 534H652L546 0H427L457 152L477 104Q439 47 382 20T258 -7ZM216 607L367 744H481L597 607H497L374
722H471L321 607H216Z" />
<glyph unicode="&#xfc;" horiz-adv-x="681" d="M258 -7Q191 -7 144 21T76 104T72 238L131 534H256L197 241Q185 176 209 140T299 103Q366 103 411 141T472 257L528 534H652L546 0H427L457 152L477 104Q439 47 382 20T258 -7ZM513 618Q489 618 473 633T457 672Q457
702 476 720T521 739Q544 739 561 724T578 684Q578 655 559 637T513 618ZM320 618Q296 618 280 633T263 672Q263 702 282 720T326 739Q351 739 367 724T383 684Q383 655 364 637T320 618Z" />
<glyph unicode="&#xfd;" horiz-adv-x="578" d="M43 -201Q3 -201 -35 -188T-97 -154L-35 -63Q-18 -78 3 -87T53 -97Q84 -97 108 -81T158 -24L205 49L217 62L511 534H636L268 -47Q231 -105 197 -139T127 -187T43 -201ZM180 -19L49 534H174L279 73L180 -19ZM514 607L665
744H815L626 607H514Z" />
<glyph unicode="&#xfe;" horiz-adv-x="686" d="M-10 -194L177 742H302L236 412L197 270L180 130L115 -194H-10ZM352 -7Q285 -7 236 17T162 90T139 211Q141 311 175 385T270 499T417 540Q483 540 536 513T620 433T652 306Q652 238 630 181T566 82T471 17T352 -7ZM342
100Q396 100 437 125T502 196T526 300Q526 362 489 398T385 434Q332 434 291 409T225 338T201 234Q201 172 238 136T342 100Z" />
<glyph unicode="&#xff;" horiz-adv-x="578" d="M43 -201Q3 -201 -35 -188T-97 -154L-35 -63Q-18 -78 3 -87T53 -97Q84 -97 108 -81T158 -24L205 49L217 62L511 534H636L268 -47Q231 -105 197 -139T127 -187T43 -201ZM180 -19L49 534H174L279 73L180 -19ZM707 618Q683
618 667 633T651 672Q651 702 670 720T715 739Q738 739 755 724T772 684Q772 655 753 637T707 618ZM514 618Q490 618 474 633T457 672Q457 702 476 720T520 739Q545 739 561 724T577 684Q577 655 558 637T514 618Z" />
<glyph unicode="&#x2013;" horiz-adv-x="500" d="M-6 237L11 319H511L494 237H-6Z" />
<glyph unicode="&#x2014;" horiz-adv-x="1000" d="M-6 237L11 319H1011L994 237H-6Z" />
<glyph unicode="&#x2018;" horiz-adv-x="244" d="M289 742L188 520L175 598Q209 598 231 576T253 521Q253 481 228 457T166 432Q133 432 111 454T89 510Q89 528 95 545T117 586L209 742H289Z" />
<glyph unicode="&#x2019;" horiz-adv-x="244" d="M84 439L185 661L197 583Q164 583 142 605T119 661Q119 700 145 724T207 749Q240 749 261 728T283 671Q283 653 277 636T256 594L164 439H84Z" />
<glyph unicode="&#x201a;" horiz-adv-x="244" d="M-35 -151L67 70L80 -7Q47 -7 25 15T2 71Q2 110 28 134T89 159Q122 159 144 138T166 81Q166 63 160 46T137 4L45 -151H-35Z" />
<glyph unicode="&#x201c;" horiz-adv-x="456" d="M289 742L188 520L175 598Q209 598 231 576T253 521Q253 481 228 457T166 432Q133 432 111 454T89 510Q89 528 95 545T117 586L209 742H289ZM501 742L400 520L387 598Q421 598 443 576T465 521Q465 481 440 457T378
432Q345 432 323 454T301 510Q301 528 307 545T329 586L421 742H501Z" />
<glyph unicode="&#x201d;" horiz-adv-x="456" d="M84 439L185 661L197 583Q164 583 142 605T119 661Q119 700 145 724T207 749Q240 749 261 728T283 671Q283 653 277 636T256 594L164 439H84ZM296 439L397 661L409 583Q376 583 354 605T331 661Q331 700 357 724T419
749Q452 749 473 728T495 671Q495 653 489 636T468 594L376 439H296Z" />
<glyph unicode="&#x201e;" horiz-adv-x="456" d="M-35 -151L67 70L80 -7Q47 -7 25 15T2 71Q2 110 28 134T89 159Q122 159 144 138T166 81Q166 63 160 46T137 4L45 -151H-35ZM177 -151L279 70L292 -7Q259 -7 237 15T214 71Q214 110 240 134T301 159Q334 159 356
138T378 81Q378 63 372 46T349 4L257 -151H177Z" />
<glyph unicode="&#x2022;" horiz-adv-x="335" d="M163 168Q135 168 112 181T76 217T62 269Q62 303 77 329T118 370T176 385Q204 385 227 372T263 337T277 285Q277 251 262 225T221 183T163 168Z" />
<glyph unicode="&#x2039;" horiz-adv-x="327" d="M145 74L42 267L222 461H338L124 222L131 322L255 74H145Z" />
<glyph unicode="&#x203a;" horiz-adv-x="327" d="M183 461L286 267L105 74H-11L204 312L197 213L72 461H183Z" />
</font>
</defs>
</svg>
